Much Ado About Nothing [1993] [Ingles] [BluRay Rip] [VS]

Adaptación de una comedia de Shakespeare. El Príncipe Don Pedro de Aragón (Denzel Washington) regresa victorioso de una batalla acompañado de su hermano bastardo Don Juan (Keanu Reeves), de Benedicto (Kenneth Branagh) y de Claudio (Robert Sean Leonard), un joven florentino que ha sido colmado de honores por el gran valor mostrado en el campo de batalla. Son recibidos con gran regocijo por el caballero Leonato, que vive con su hija Hero (Beckinsale) y su sobrina Beatriz (Emma Thompson) en una paradisíaca villa de la campiña siciliana (Mesina). En el siglo XV, Sicilia formaba parte de la Corona de Aragón.

Título original: Much Ado About Nothing
Año: 1993
Duración: 110 min.
País: Reino Unido Reino Unido
Dirección: Kenneth Branagh
Guion: Kenneth Branagh (Teatro: William Shakespeare)
Música: Patrick Doyle
Fotografía: Roger Lanser
Reparto: Kenneth Branagh, Emma Thompson, Robert Sean Leonard, Denzel Washington, Keanu Reeves, Michael Keaton, Kate Beckinsale, Richard Briers, Phyllida Law, Imelda Staunton, Brian Blessed, Gerard Horan, Richard Clifford, Jimmy Yuill, Ben Elton, Alex Lowe, Patrick Doyle
Productora: Samuel Goldwyn Company
Género: Comedia. Romance | Siglo XVII


Info:
Format: Matroska
Format version: Version 4 / Version 2
File size : 2.25 GiB
Duration: 1h 50mn
Overall bit rate: 2 903 Kbps
Encoded date: UTC 2018-04-04 16:17:11
Writing application: mkvmerge v14.0.0 (‘Flow’) 64bit
Writing library: libebml v1.3.4 + libmatroska v1.4.5
Video
ID: 1
Format: HEVC
Format/Info: High Efficiency Video Coding
Format profile: Main [email protected]@Main
Codec ID: V_MPEGH/ISO/HEVC
Duration: 1h 50mn
Bit rate: 2 550 Kbps
Width: 1 920 pixels
Height: 1 080 pixels
Display aspect ratio: 16:9
Frame rate mode: Constant
Frame rate: 23.976 (24000/1001) fps
Color space: YUV
Chroma subsampling: 4:2:0
Bit depth: 10 bits
Bits/(Pixel*Frame): 0.051
Stream size: 1.98 GiB (88%)
Writing library: x265 1.9+3-548a45bbf223:[Windows][GCC 5.2.0][64 bit] 10bit
Audio
ID: 2
Format: AAC
Format/Info: Advanced Audio Codec
Format profile: LC
Codec ID: A_AAC-2
Duration: 1h 50mn
Bit rate: 353 Kbps
Channel(s): 2 channels
Channel positions: Front: L R
Sampling rate: 48.0 KHz
Frame rate: 46.875 fps (1024 SPF)
Compression mode: Lossy
Delay relative to video: 9ms
Stream size: 279 MiB (12%)
Language: English
Default: Yes
Forced: No

Enlaces intercambiables
Katfile

http://katfile.com/9domjxbwplhv/MAN93-Upload.By.EmaMedinaYT.part1.rar.html
http://katfile.com/ckvllwmbppkd/MAN93-Upload.By.EmaMedinaYT.part2.rar.html
http://katfile.com/k49b85j8orlx/MAN93-Upload.By.EmaMedinaYT.part3.rar.html
http://katfile.com/4bwx1pxmkcdt/MAN93-Upload.By.EmaMedinaYT.part4.rar.html
http://katfile.com/99rruqui17mu/MAN93-Upload.By.EmaMedinaYT.part5.rar.html
Openload

http://openload.co/f/SJTtnEKRtRM/MAN93-Upload.By.EmaMedinaYT.part1.rar
http://openload.co/f/2I4CNy2mUgE/MAN93-Upload.By.EmaMedinaYT.part2.rar
http://openload.co/f/7Dx9ALh3YH8/MAN93-Upload.By.EmaMedinaYT.part3.rar
http://openload.co/f/oulGrxcuwl0/MAN93-Upload.By.EmaMedinaYT.part4.rar
http://openload.co/f/KzGPc-k-xCg/MAN93-Upload.By.EmaMedinaYT.part5.rar
Uploaded

http://ul.to/77h5x2oz
http://ul.to/h86ttowg
http://ul.to/tvwg82op
http://ul.to/co63yhl9
http://ul.to/s5mga35k
Uploads

http://uploads.to/i42t04pc2nj1
http://uploads.to/sqmdiuvyfzey
http://uploads.to/stldt5c43uwf
http://uploads.to/bm1o9bgbd5y2
http://uploads.to/sgx5ltv0nemy

>>>Descargar Much Ado About Nothing [1993] [Ingles] [BluRay Rip] [VS]<<<
143 Visitas

Temas del mismo autor:

Deja un comentario